osu file format v14

[General]
AudioFilename: 7shadesofcolour.mp3
AudioLeadIn: 1500
PreviewTime: 52046
Countdown: 0
SampleSet: None
StackLeniency: 0.4
Mode: 0
LetterboxInBreaks: 0
WidescreenStoryboard: 0

[Editor]
Bookmarks: 14155,26462,51078,80309
DistanceSpacing: 0.8
BeatDivisor: 4
GridSize: 4
TimelineZoom: 1.8

[Metadata]
Title:7 Colors
TitleUnicode:7 Colors
Artist:kors k feat. Sunao Yoshikawa
ArtistUnicode:kors k feat. 吉河順央
Creator:Yauxo
Version:Insane
Source:REFLEC BEAT colette -Summer-
Tags:pishifat Kinshara Snaggletooth Colours プリズムユーロ PRISM EURO pop'n music Sunny Park jubeat saucer fulfill
BeatmapID:619513
BeatmapSetID:272555

[Difficulty]
HPDrainRate:7
CircleSize:4
OverallDifficulty:8
ApproachRate:9
SliderMultiplier:1.9
SliderTickRate:1

[Events]
//Background and Video events
0,0,"morethan7colors.jpg",0,0
//Break Periods
//Storyboard Layer 0 (Background)
//Storyboard Layer 1 (Fail)
//Storyboard Layer 2 (Pass)
//Storyboard Layer 3 (Foreground)
//Storyboard Sound Samples

[TimingPoints]
316,384.615384615385,4,3,1,70,1,0
13777,-74.0740740740741,4,3,1,70,0,0
14066,-74.0740740740741,4,3,1,20,0,0
14162,-100,4,3,1,70,0,1
14258,-100,4,3,1,70,0,0
28969,-100,4,3,1,20,0,0
29066,-100,4,3,1,70,0,0
29258,-100,4,3,1,20,0,0
29354,-100,4,3,1,70,0,0
31950,-100,4,3,1,20,0,0
32046,-100,4,3,1,70,0,0
32142,-100,4,3,1,20,0,0
32239,-100,4,3,1,70,0,0
37527,-100,4,3,1,20,0,0
37623,-100,4,3,1,70,0,0
52623,-100,4,3,1,70,0,1
64546,-100,4,3,1,70,0,0
64931,-100,4,3,1,70,0,1
76854,-83.3333333333333,4,3,1,70,0,1
77239,-100,4,3,1,70,0,0
79931,-74.0740740740741,4,3,1,70,0,0
80316,-100,4,3,1,70,0,1
80412,-100,4,3,1,70,0,0

[Colours]
Combo1 : 190,142,234
Combo2 : 244,132,171
Combo3 : 243,203,118
Combo4 : 247,233,138
Combo5 : 166,230,138
Combo6 : 129,222,239
Combo7 : 149,143,218

[HitObjects]
168,132,316,6,0,B|180:188|180:188|150:268,1,142.5,2|0,0:0|0:0,0:0:0:0:
116,284,700,1,8,0:0:0:0:
76,148,892,1,2,0:0:0:0:
252,256,1085,2,0,B|291:262|291:262|356:252,1,95,8|0,1:3|0:0,0:0:0:0:
428,324,1373,1,0,0:0:0:0:
428,324,1469,2,0,L|432:276,1,47.5,2|0,0:0|0:0,0:0:0:0:
484,200,1662,2,0,L|479:152,1,47.5,8|0,0:0|0:0,0:0:0:0:
512,64,1854,6,0,B|463:47|422:77|422:77|382:107|331:90,1,190,6|0,0:1|0:0,0:0:0:0:
216,100,2431,2,0,L|176:68,1,47.5,0|0,0:0|0:0,0:0:0:0:
252,24,2623,2,0,L|228:128,1,95,0|0,0:0|0:0,0:0:0:0:
160,228,3008,1,0,0:0:0:0:
169,264,3104,1,0,0:0:0:0:
178,301,3200,2,0,L|256:320,1,47.5,0|0,0:0|0:0,0:0:0:0:
256,336,3392,5,2,0:2:0:0:
328,192,3585,1,0,0:0:0:0:
348,312,3777,1,2,0:2:0:0:
236,168,3969,1,0,0:0:0:0:
420,168,4162,5,2,0:2:0:0:
220,256,4354,1,0,0:0:0:0:
436,256,4546,1,2,0:2:0:0:
236,168,4739,1,0,0:0:0:0:
100,332,4931,6,0,B|221:354|221:354|285:338,1,190,4|0,0:1|0:0,0:0:0:0:
396,308,5508,1,0,0:0:0:0:
220,176,5700,1,0,0:0:0:0:
204,216,5796,1,0,0:0:0:0:
220,256,5892,1,0,0:0:0:0:
312,192,6085,1,0,0:0:0:0:
285,338,6277,1,0,0:0:0:0:
285,338,6373,1,0,0:0:0:0:
285,338,6469,6,0,L|248:356,2,31.6666666666667,2|0|0,0:2|0:0|0:0,0:0:0:0:
364,308,6662,2,0,L|401:326,2,31.6666666666667,0|0|0,0:0|0:0|0:0,0:0:0:0:
317,239,6854,6,0,L|312:192,1,47.5,2|0,0:2|0:0,0:0:0:0:
252,92,7046,2,0,L|246:139,1,47.5,0|0,0:0|0:0,0:0:0:0:
180,196,7239,5,2,0:2:0:0:
184,233,7335,1,0,0:0:0:0:
188,270,7431,1,0,0:0:0:0:
192,307,7527,1,0,0:0:0:0:
196,344,7623,2,0,L|120:320,1,47.5,2|0,0:2|0:0,0:0:0:0:
60,332,7816,2,0,L|74:286,1,47.5,0|0,0:0|0:0,0:0:0:0:
22,207,8008,6,0,B|66:180|112:201|112:201|158:222|204:194,1,190,6|2,0:1|0:0,0:0:0:0:
288,156,8585,1,0,0:0:0:0:
268,268,8777,1,2,0:0:0:0:
148,116,8969,1,0,0:0:0:0:
308,44,9162,1,2,0:0:0:0:
204,194,9354,1,0,0:0:0:0:
428,224,9546,6,0,B|475:195|475:195|412:184|412:184|340:224,1,190,6|2,0:1|0:0,0:0:0:0:
384,308,10123,1,0,0:0:0:0:
464,100,10316,1,2,0:0:0:0:
480,336,10508,1,0,0:0:0:0:
288,292,10700,1,6,0:1:0:0:
252,300,10796,1,0,0:1:0:0:
216,308,10892,1,4,0:1:0:0:
180,316,10989,1,0,0:1:0:0:
144,324,11085,6,0,L|72:244,1,95,6|0,0:1|0:0,0:0:0:0:
36,192,11341,1,0,0:0:0:0:
36,192,11405,1,0,0:0:0:0:
36,192,11469,2,0,L|32:144,2,31.6666666666667,10|0|0,0:2|0:0|0:0,0:0:0:0:
124,168,11662,2,0,L|167:188,2,31.6666666666667,0|0|0,0:0|0:0|0:0,0:0:0:0:
88,96,11854,6,0,L|144:44,1,47.5,10|0,0:2|0:0,0:0:0:0:
204,92,12046,2,0,L|260:40,1,47.5,0|0,0:0|0:0,0:0:0:0:
320,88,12239,1,10,0:2:0:0:
353,70,12335,1,0,0:0:0:0:
391,69,12431,1,0,0:0:0:0:
426,83,12527,1,0,0:0:0:0:
451,111,12623,5,2,1:3:0:0:
416,336,12912,1,2,1:3:0:0:
370,169,13200,1,2,1:3:0:0:
418,146,13777,6,0,B|440:189|407:241|350:242|318:207|317:171,1,192.375000733852,2|0,0:2|0:0,0:0:0:0:
370,169,14162,6,0,B|342:197|342:197|278:209,1,95,14|0,0:2|0:0,0:0:0:0:
216,248,14450,2,0,B|205:209|205:209|227:148,1,95,2|0,0:2|0:0,0:0:0:0:
252,80,14739,1,2,0:2:0:0:
296,332,14931,1,2,0:0:0:0:
296,332,15027,2,0,L|184:348,1,95,2|0,0:2|0:0,0:0:0:0:
168,364,15316,1,10,0:2:0:0:
124,150,15508,1,2,0:2:0:0:
36,232,15700,5,10,0:2:0:0:
76,255,15796,1,2,0:2:0:0:
123,263,15892,1,2,0:2:0:0:
170,256,15988,1,2,0:2:0:0:
211,232,16084,1,10,0:2:0:0:
304,100,16277,1,0,0:0:0:0:
304,100,16373,1,0,0:0:0:0:
304,100,16469,2,0,L|308:204,1,95,14|0,0:1|0:0,0:0:0:0:
388,224,16758,2,0,L|384:129,1,95,2|0,0:2|0:0,0:0:0:0:
428,60,17046,1,2,0:2:0:0:
140,96,17239,6,0,B|168:124|168:124|232:136,1,95,14|0,0:1|0:0,0:0:0:0:
288,180,17527,2,0,B|260:208|260:208|196:220,1,95,2|0,0:2|0:0,0:0:0:0:
144,272,17816,1,2,0:2:0:0:
56,56,18008,1,2,0:0:0:0:
56,56,18104,2,0,L|40:168,1,95,2|0,0:2|0:0,0:0:0:0:
24,184,18393,1,14,0:1:0:0:
240,332,18585,1,2,0:2:0:0:
69,321,18777,5,10,0:2:0:0:
90,279,18873,1,2,0:2:0:0:
129,253,18969,1,2,0:2:0:0:
168,227,19065,1,2,0:2:0:0:
188,184,19161,1,10,0:2:0:0:
260,32,19354,1,0,0:0:0:0:
85,40,19546,2,0,B|41:73|41:73|104:84|104:84|162:43,1,190,10|10,0:2|0:2,0:0:0:0:
172,90,20027,1,2,0:2:0:0:
180,137,20123,1,2,0:2:0:0:
188,184,20219,1,2,0:2:0:0:
195,230,20316,6,0,L|172:340,1,95,14|0,0:2|0:0,0:0:0:0:
108,368,20604,2,0,B|91:331|91:331|103:267,1,95,2|0,0:2|0:0,0:0:0:0:
60,208,20892,1,2,0:2:0:0:
276,344,21085,1,2,0:0:0:0:
276,344,21181,2,0,L|396:320,1,95,2|0,0:2|0:0,0:0:0:0:
396,296,21469,1,10,0:2:0:0:
218,126,21662,1,2,0:2:0:0:
130,208,21854,5,10,0:2:0:0:
170,231,21950,1,2,0:2:0:0:
217,239,22046,1,2,0:2:0:0:
264,232,22142,1,2,0:2:0:0:
305,208,22238,1,10,0:2:0:0:
436,112,22431,1,0,0:0:0:0:
436,112,22527,1,0,0:0:0:0:
436,112,22623,2,0,L|304:92,1,95,10|0,0:2|0:0,0:0:0:0:
272,56,22912,2,0,L|140:76,1,95,2|0,0:2|0:0,0:0:0:0:
96,80,23200,1,2,0:2:0:0:
36,248,23392,6,0,B|73:265|73:265|137:253,1,95,14|0,0:1|0:0,0:0:0:0:
184,196,23681,2,0,B|208:228|208:228|209:293,1,95,2|0,0:2|0:0,0:0:0:0:
172,356,23969,1,2,0:2:0:0:
84,174,24162,1,2,0:0:0:0:
84,174,24258,2,0,L|96:80,1,95,2|0,0:2|0:0,0:0:0:0:
120,52,24546,1,14,0:1:0:0:
256,156,24739,1,2,0:2:0:0:
392,52,24931,5,10,0:2:0:0:
396,100,25027,1,2,0:2:0:0:
420,140,25123,1,2,0:2:0:0:
424,188,25219,1,2,0:2:0:0:
428,236,25316,1,2,0:2:0:0:
292,340,25508,1,10,0:2:0:0:
288,292,25604,1,2,0:2:0:0:
264,252,25700,1,10,0:2:0:0:
260,204,25796,1,2,0:2:0:0:
256,156,25893,1,2,0:2:0:0:
120,52,26085,2,0,L|108:146,1,95,2|0,0:2|0:0,0:0:0:0:
64,216,26373,1,0,0:0:0:0:
64,216,26469,6,0,B|101:233|101:233|165:221,1,95,12|0,0:2|0:0,0:0:0:0:
320,288,26854,2,0,B|337:251|337:251|327:197,1,95,2|0,0:0|0:0,0:0:0:0:
240,144,27142,1,0,0:0:0:0:
240,144,27239,2,0,L|248:248,1,95,2|0,0:0|0:0,0:0:0:0:
216,368,27623,1,2,0:0:0:0:
324,112,27816,1,0,0:0:0:0:
492,228,28008,6,0,B|455:245|455:245|401:235,1,95,2|0,0:0|0:0,0:0:0:0:
149,151,28392,2,0,B|186:134|186:134|240:144,1,95,2|0,0:0|0:0,0:0:0:0:
292,236,28681,1,0,0:0:0:0:
292,236,28777,6,0,L|180:216,1,95,10|0,0:2|0:0,0:0:0:0:
84,256,29066,2,0,L|196:236,1,95,2|0,0:2|0:0,0:0:0:0:
292,236,29354,1,2,0:2:0:0:
156,59,29546,6,0,B|138:96|138:96|149:151,1,95,10|0,0:2|0:0,0:0:0:0:
299,325,29931,2,0,B|310:273|310:273|292:236,1,95,2|0,0:0|0:0,0:0:0:0:
240,128,30219,1,0,0:0:0:0:
240,128,30316,2,0,B|271:152|312:154|343:136,1,95,2|0,0:0|0:0,0:0:0:0:
477,45,30700,2,0,B|445:57|425:85|420:116,1,95,2|0,0:0|0:0,0:0:0:0:
412,248,31085,5,2,0:0:0:0:
299,52,31277,1,0,0:0:0:0:
299,52,31373,1,0,0:0:0:0:
299,52,31469,1,10,0:2:0:0:
164,172,31662,1,0,0:0:0:0:
128,164,31758,1,0,0:0:0:0:
92,156,31854,6,0,L|84:80,1,47.5,10|0,0:2|0:0,0:0:0:0:
172,40,32046,2,0,L|167:87,1,47.5,2|0,0:2|0:0,0:0:0:0:
16,212,32239,2,0,L|4:96,1,95,10|2,0:2|0:2,0:0:0:0:
252,44,32623,6,0,L|242:138,1,95,12|0,0:2|0:0,0:0:0:0:
192,276,33008,2,0,B|208:246|238:230|269:229,1,95,10|0,0:2|0:0,0:0:0:0:
350,367,33296,1,0,0:0:0:0:
350,367,33392,2,0,B|316:367|286:349|270:322,1,95,2|0,0:0|0:0,0:0:0:0:
160,168,33777,2,0,L|104:152,1,47.5,2|0,0:0|0:0,0:0:0:0:
0,220,33969,2,0,L|56:204,1,47.5,0|0,0:0|0:0,0:0:0:0:
164,76,34162,5,2,0:0:0:0:
200,65,34258,1,0,0:0:0:0:
236,54,34354,1,0,0:0:0:0:
272,43,34450,1,0,0:0:0:0:
308,32,34546,2,0,B|326:69|326:69|315:124,1,95,10|0,0:2|0:0,0:0:0:0:
243,261,34931,2,0,B|225:224|225:224|236:172,1,95,2|0,0:0|0:0,0:0:0:0:
416,76,35316,1,0,0:0:0:0:
425,112,35412,1,0,0:0:0:0:
422,150,35508,1,0,0:0:0:0:
406,184,35604,1,0,0:0:0:0:
379,210,35700,5,0,0:0:0:0:
252,132,35892,1,0,0:0:0:0:
292,288,36085,1,12,0:2:0:0:
400,54,36277,1,2,0:0:0:0:
362,51,36373,1,0,0:0:0:0:
324,48,36469,5,2,0:0:0:0:
286,45,36565,1,0,0:0:0:0:
248,42,36661,1,0,0:0:0:0:
210,39,36757,1,0,0:0:0:0:
172,36,36854,1,2,0:0:0:0:
134,38,36950,1,0,0:0:0:0:
100,55,37046,1,0,0:0:0:0:
75,83,37142,1,0,0:0:0:0:
63,119,37239,6,0,B|83:216|83:216|60:272,1,142.5,10|0,0:2|0:0,0:0:0:0:
32,272,37623,1,2,0:0:0:0:
184,136,37816,1,2,0:0:0:0:
184,136,38200,5,2,0:0:0:0:
156,324,38392,1,2,0:0:0:0:
280,180,38585,1,0,0:0:0:0:
280,180,38681,1,0,0:0:0:0:
280,180,38777,6,0,B|320:172|320:172|367:196,1,95,14|0,0:1|0:0,0:0:0:0:
320,355,39162,2,0,B|296:308|296:308|304:268,1,95,2|0,0:0|0:0,0:0:0:0:
400,104,39546,1,2,0:0:0:0:
486,293,39739,2,0,B|458:311|423:311|396:296,1,95,2|2,0:2|0:0,0:0:0:0:
208,244,40123,1,2,0:2:0:0:
280,360,40316,6,0,B|302:239|302:239|286:174,1,190,6|2,0:1|0:0,0:0:0:0:
276,136,40796,1,0,0:0:0:0:
255,104,40892,1,0,0:0:0:0:
224,82,40988,1,0,0:0:0:0:
187,72,41084,1,2,0:0:0:0:
150,76,41180,1,0,0:0:0:0:
116,92,41276,1,0,0:0:0:0:
89,119,41373,1,0,0:0:0:0:
80,156,41469,6,0,L|90:217,1,47.5,2|0,0:0|0:0,0:0:0:0:
215,128,41662,2,0,L|226:67,1,47.5,,,0:0:0:0:
360,40,41854,6,0,B|400:32|400:32|447:56,1,95,14|0,0:1|0:0,0:0:0:0:
476,266,42239,1,2,0:0:0:0:
386,310,42431,2,0,B|363:257|395:209|395:209|379:177|379:177|387:129,1,190,0|0,0:0|0:0,0:0:0:0:
448,56,43008,1,2,0:0:0:0:
292,204,43200,6,0,L|184:204,1,95,2|0,0:2|0:0,0:0:0:0:
108,204,43585,1,0,0:0:0:0:
56,56,43777,1,2,0:0:0:0:
8,228,43969,2,0,B|28:288|80:308|132:308|132:308|208:308,1,190,0|0,0:0|0:0,0:0:0:0:
200,308,44450,1,0,0:0:0:0:
237,307,44546,1,2,0:0:0:0:
274,298,44642,1,0,0:0:0:0:
305,276,44738,1,0,0:0:0:0:
324,244,44834,1,0,0:0:0:0:
332,208,44931,6,0,B|318:169|318:169|274:140,1,95,14|0,0:1|0:0,0:0:0:0:
136,104,45316,1,2,0:0:0:0:
172,244,45508,1,0,0:0:0:0:
208,236,45604,1,0,0:0:0:0:
244,228,45700,5,2,0:0:0:0:
96,188,45892,1,4,0:0:0:0:
244,228,46085,1,2,0:0:0:0:
196,84,46277,1,0,0:0:0:0:
160,316,46469,6,0,L|264:328,1,95,14|0,0:1|0:0,0:0:0:0:
460,256,46854,1,2,0:0:0:0:
340,184,47046,1,4,0:0:0:0:
348,220,47142,1,0,0:0:0:0:
356,256,47239,5,2,0:0:0:0:
396,40,47431,1,4,0:0:0:0:
356,256,47623,1,2,0:0:0:0:
460,148,47816,1,0,0:0:0:0:
244,75,48008,6,0,B|211:83|188:109|182:139,1,95,14|0,0:1|0:0,0:0:0:0:
208,291,48392,1,2,0:0:0:0:
344,207,48585,2,0,B|368:166|331:111|268:123|247:169|262:202,1,190,0|0,0:0|0:0,0:0:0:0:
400,291,49162,1,2,0:0:0:0:
432,103,49354,1,0,0:0:0:0:
244,75,49546,5,14,1:0:0:0:
217,101,49642,1,0,0:0:0:0:
206,137,49738,1,2,0:0:0:0:
214,174,49834,1,0,0:0:0:0:
238,202,49930,1,2,0:0:0:0:
274,215,50026,1,0,0:0:0:0:
311,209,50122,1,0,0:0:0:0:
340,185,50219,1,0,0:0:0:0:
355,151,50315,1,10,0:2:0:0:
370,116,50412,1,0,0:0:0:0:
400,93,50508,1,10,0:2:0:0:
437,88,50604,1,0,0:0:0:0:
472,102,50700,5,10,0:2:0:0:
460,148,50796,1,0,0:0:0:0:
472,196,50892,1,10,0:2:0:0:
460,241,50988,1,0,0:0:0:0:
472,288,51084,1,4,1:3:0:0:
256,192,51181,12,0,52239,2:0:0:0:
132,240,52623,6,0,B|171:274|171:274|212:278,1,95,14|0,0:2|0:0,0:0:0:0:
356,228,53008,1,2,0:0:0:0:
228,112,53200,1,0,0:0:0:0:
220,148,53296,1,0,0:0:0:0:
212,184,53392,5,8,0:2:0:0:
348,120,53585,1,0,0:0:0:0:
136,32,53777,1,2,0:0:0:0:
212,184,53969,1,0,0:0:0:0:
352,44,54162,6,0,B|385:52|408:78|414:108,1,95,2|0,0:0|0:0,0:0:0:0:
468,268,54546,2,0,B|428:281|428:281|378:265,1,95,2|0,0:0|0:0,0:0:0:0:
300,288,54835,1,0,0:0:0:0:
300,288,54931,2,0,B|279:256|269:221|268:186,1,95,2|0,0:0|0:0,0:0:0:0:
248,104,55316,1,2,0:0:0:0:
384,216,55508,1,2,0:0:0:0:
212,340,55700,6,0,B|183:358|149:357|122:340,1,95,10|0,0:2|0:0,0:0:0:0:
51,179,56085,1,2,0:0:0:0:
89,179,56181,1,0,0:0:0:0:
124,193,56277,1,0,0:0:0:0:
150,220,56373,1,0,0:0:0:0:
164,256,56469,2,0,B|187:230|200:200|203:168,1,95,2|0,0:0|0:0,0:0:0:0:
308,60,56854,1,6,0:1:0:0:
156,84,57046,1,0,0:0:0:0:
120,76,57142,1,0,0:0:0:0:
84,68,57239,5,10,0:2:0:0:
228,16,57431,1,0,0:0:0:0:
51,179,57623,1,2,0:0:0:0:
261,127,57816,1,0,0:0:0:0:
300,124,57912,1,0,0:0:0:0:
336,120,58008,6,0,L|380:76,1,47.5,2|0,0:0|0:0,0:0:0:0:
384,196,58200,2,0,L|428:152,1,47.5,0|0,0:0|0:0,0:0:0:0:
432,272,58392,1,2,0:0:0:0:
427,309,58488,1,2,0:0:0:0:
405,340,58584,1,2,0:0:0:0:
372,358,58680,1,2,0:0:0:0:
335,358,58777,6,0,B|300:334|300:334|284:284,1,95,14|0,0:2|0:0,0:0:0:0:
204,176,59162,1,2,0:0:0:0:
40,232,59354,1,0,0:0:0:0:
72,256,59451,1,0,0:0:0:0:
102,279,59546,2,0,L|200:268,1,95,2|0,0:0|0:0,0:0:0:0:
396,200,59931,2,0,L|298:188,1,95,2|0,0:0|0:0,0:0:0:0:
204,176,60316,5,2,0:0:0:0:
348,288,60508,1,0,0:0:0:0:
368,100,60700,1,2,0:0:0:0:
244,276,60892,1,0,0:0:0:0:
208,284,60989,1,0,0:0:0:0:
172,292,61085,2,0,B|139:301|107:291|85:268,1,95,2|0,0:0|0:0,0:0:0:0:
132,92,61469,2,0,B|156:116|164:150|156:180,1,95,6|0,0:1|0:0,0:0:0:0:
44,164,61854,5,6,0:1:0:0:
240,56,62046,1,0,0:0:0:0:
40,56,62239,1,2,0:0:0:0:
236,164,62431,1,0,0:0:0:0:
164,8,62623,5,2,0:0:0:0:
120,212,62816,1,0,0:0:0:0:
320,112,63008,1,6,0:1:0:0:
396,320,63200,1,0,0:0:0:0:
396,320,63296,1,0,0:0:0:0:
396,320,63392,6,0,B|408:272|408:272|392:228|392:228|416:188|404:144,2,142.5,14|0|0,0:2|0:0|0:0,0:0:0:0:
304,352,64162,1,2,0:0:0:0:
268,340,64258,1,0,0:0:0:0:
232,328,64354,1,0,0:0:0:0:
196,316,64450,1,0,0:0:0:0:
160,304,64546,2,0,L|112:312,1,47.5,2|2,0:0|0:0,0:0:0:0:
8,240,64739,2,0,L|54:247,1,47.5,2|2,0:0|0:0,0:0:0:0:
232,232,64931,6,0,B|248:192|248:192|234:142,1,95,14|0,0:2|0:0,0:0:0:0:
168,16,65316,1,2,0:0:0:0:
80,164,65508,1,0,0:0:0:0:
116,176,65604,1,0,0:0:0:0:
152,188,65700,5,2,0:0:0:0:
276,108,65892,1,0,0:0:0:0:
332,288,66085,1,2,0:0:0:0:
152,188,66277,1,0,0:0:0:0:
352,60,66469,6,0,B|368:100|368:100|354:150,1,95,2|0,0:0|0:0,0:0:0:0:
152,188,66854,2,0,B|138:238|138:238|154:278,1,95,2|0,0:0|0:0,0:0:0:0:
224,232,67142,1,0,0:0:0:0:
224,232,67239,2,0,L|250:140,1,95,2|0,0:0|0:0,0:0:0:0:
324,40,67623,1,2,0:0:0:0:
396,160,67816,1,2,0:0:0:0:
228,40,68008,6,0,B|185:46|185:46|149:83,1,95,10|0,0:2|0:0,0:0:0:0:
132,252,68392,1,2,0:0:0:0:
169,244,68488,1,0,0:0:0:0:
200,222,68584,1,0,0:0:0:0:
220,191,68680,1,0,0:0:0:0:
227,154,68777,2,0,L|334:142,1,95,2|0,0:0|0:0,0:0:0:0:
456,132,69162,1,6,0:1:0:0:
344,8,69354,1,0,0:0:0:0:
320,36,69450,1,0,0:0:0:0:
296,64,69546,5,10,0:2:0:0:
396,224,69739,1,0,0:0:0:0:
452,24,69931,1,2,0:0:0:0:
224,40,70123,1,0,0:0:0:0:
188,48,70219,1,0,0:0:0:0:
152,56,70316,6,0,L|93:33,1,47.5,2|0,0:0|0:0,0:0:0:0:
115,140,70508,2,0,L|56:117,1,47.5,0|0,0:0|0:0,0:0:0:0:
102,229,70700,1,2,0:0:0:0:
121,261,70796,1,2,0:0:0:0:
154,281,70892,1,2,0:0:0:0:
191,284,70988,1,2,0:0:0:0:
225,269,71085,6,0,B|261:291|261:291|313:285,1,95,14|0,0:2|0:0,0:0:0:0:
416,200,71469,1,2,0:0:0:0:
252,120,71662,1,0,0:0:0:0:
260,84,71758,1,0,0:0:0:0:
268,48,71854,2,0,L|368:28,1,95,2|0,0:0|0:0,0:0:0:0:
509,218,72239,2,0,L|416:200,1,95,2|0,0:0|0:0,0:0:0:0:
348,256,72623,5,2,0:0:0:0:
460,88,72816,1,0,0:0:0:0:
268,48,73008,1,2,0:0:0:0:
348,256,73200,1,0,0:0:0:0:
340,292,73296,1,0,0:0:0:0:
332,328,73392,2,0,B|292:344|292:344|242:330,1,95,2|0,0:0|0:0,0:0:0:0:
156,252,73777,2,0,B|106:238|106:238|66:254,1,95,6|0,0:1|0:0,0:0:0:0:
112,360,74162,5,6,0:1:0:0:
288,224,74354,1,0,0:0:0:0:
96,148,74546,1,2,0:0:0:0:
242,330,74739,1,0,0:0:0:0:
224,104,74931,1,2,0:0:0:0:
380,296,75123,1,0,0:0:0:0:
156,252,75316,1,2,0:0:0:0:
120,256,75412,1,2,0:0:0:0:
84,260,75508,1,2,0:0:0:0:
48,264,75604,1,2,0:0:0:0:
12,268,75700,5,14,0:2:0:0:
96,148,75892,1,2,0:0:0:0:
212,336,76277,1,10,0:2:0:0:
228,40,76662,1,2,0:0:0:0:
228,40,76854,6,0,B|272:48|272:48|329:45|329:45|356:64,1,113.999996520996,14|2,0:1|0:0,0:0:0:0:
376,48,77142,1,0,0:0:0:0:
376,48,77239,6,0,B|354:132|354:132|368:196,1,142.5,14|2,0:2|0:2,0:0:0:0:
428,336,77623,2,0,B|365:274|365:274|303:255,1,142.5,2|0,0:0|0:0,0:0:0:0:
152,237,78008,2,0,B|236:213|236:213|284:169,1,142.5,10|2,0:2|0:2,0:0:0:0:
376,48,78392,2,0,B|339:96|270:102|225:64,1,142.5,2|0,0:0|0:0,0:0:0:0:
168,40,78777,6,0,L|120:84,1,47.5,10|0,0:2|0:0,0:0:0:0:
104,208,78969,2,0,L|125:165,1,47.5,10|0,0:2|0:0,0:0:0:0:
244,92,79162,2,0,L|237:139,1,47.5,10|0,0:2|0:0,0:0:0:0:
304,264,79354,2,0,L|293:217,1,47.5,10|0,0:2|0:0,0:0:0:0:
352,92,79546,1,10,0:2:0:0:
379,66,79642,1,2,0:0:0:0:
415,55,79738,1,10,0:2:0:0:
452,62,79834,1,0,0:0:0:0:
492,84,79931,6,0,B|483:137|424:169|367:141|353:94,1,192.375000733852,6|2,0:0|0:0,0:0:0:0:
292,40,80316,6,0,B|272:74|272:74|278:139,1,95,14|0,0:2|0:0,0:0:0:0:
332,192,80604,2,0,B|298:212|298:212|233:206,1,95,2|0,0:2|0:0,0:0:0:0:
176,164,80892,1,2,0:2:0:0:
368,104,81085,1,2,0:0:0:0:
368,104,81181,2,0,L|480:88,1,95,2|0,0:2|0:0,0:0:0:0:
492,68,81469,1,10,0:2:0:0:
400,330,81662,1,2,0:2:0:0:
488,248,81854,5,10,0:2:0:0:
448,225,81950,1,2,0:2:0:0:
401,217,82046,1,2,0:2:0:0:
354,224,82142,1,2,0:2:0:0:
313,248,82238,1,10,0:2:0:0:
68,340,82431,1,0,0:0:0:0:
68,340,82527,1,0,0:0:0:0:
68,340,82623,2,0,L|172:328,1,95,14|0,0:1|0:0,0:0:0:0:
220,256,82912,2,0,L|116:244,1,95,2|0,0:2|0:0,0:0:0:0:
64,192,83200,1,2,0:2:0:0:
320,316,83392,6,0,L|329:221,1,95,10|0,0:2|0:0,0:0:0:0:
316,140,83681,2,0,B|355:139|355:139|408:177,1,95,2|0,0:2|0:0,0:0:0:0:
464,220,83969,1,2,0:2:0:0:
212,164,84162,1,2,0:0:0:0:
212,164,84258,2,0,L|196:52,1,95,2|0,0:2|0:0,0:0:0:0:
212,36,84546,1,14,0:1:0:0:
60,152,84739,1,2,0:2:0:0:
132,324,84931,5,10,0:2:0:0:
176,312,85027,1,0,0:0:0:0:
220,300,85123,1,2,0:2:0:0:
264,288,85219,1,0,0:0:0:0:
308,276,85315,1,10,0:2:0:0:
464,324,85508,1,0,0:0:0:0:
400,80,85700,2,0,B|381:28|381:28|439:53|439:53|466:119,1,190,10|10,0:2|0:2,0:0:0:0:
468,166,86181,1,0,0:0:0:0:
441,204,86277,1,2,0:2:0:0:
397,217,86373,1,0,0:0:0:0:
353,201,86469,6,0,L|244:220,1,95,14|0,0:2|0:0,0:0:0:0:
184,252,86758,2,0,B|173:214|173:214|194:162,1,95,2|0,0:2|0:0,0:0:0:0:
268,128,87046,1,2,0:2:0:0:
428,328,87239,1,2,0:0:0:0:
428,328,87335,2,0,L|324:344,1,95,2|0,0:2|0:0,0:0:0:0:
300,328,87623,1,10,0:2:0:0:
71,251,87816,1,2,0:2:0:0:
153,339,88008,5,10,0:2:0:0:
176,299,88104,1,2,0:2:0:0:
184,252,88200,1,2,0:2:0:0:
177,205,88296,1,2,0:2:0:0:
153,164,88392,1,10,0:2:0:0:
48,40,88585,1,0,0:0:0:0:
48,40,88681,1,0,0:0:0:0:
48,40,88777,2,0,L|152:60,1,95,10|0,0:2|0:0,0:0:0:0:
212,96,89066,2,0,L|316:76,1,95,2|0,0:2|0:0,0:0:0:0:
368,28,89354,1,2,0:2:0:0:
480,188,89546,6,0,L|456:288,1,95,14|0,0:2|0:0,0:0:0:0:
392,324,89835,2,0,B|375:288|375:288|388:233,1,95,2|0,0:2|0:0,0:0:0:0:
376,156,90123,1,2,0:2:0:0:
192,64,90316,1,2,0:0:0:0:
192,64,90412,2,0,L|214:156,1,95,2|0,0:2|0:0,0:0:0:0:
200,192,90700,1,14,0:2:0:0:
332,40,90892,1,2,0:2:0:0:
76,44,91085,5,10,0:2:0:0:
72,92,91181,1,2,0:2:0:0:
48,132,91277,1,2,0:2:0:0:
44,180,91373,1,2,0:2:0:0:
40,228,91470,1,2,0:2:0:0:
184,336,91662,1,10,0:2:0:0:
232,332,91758,1,2,0:2:0:0:
272,308,91854,1,10,0:2:0:0:
320,304,91950,1,2,0:2:0:0:
368,300,92047,1,2,0:2:0:0:
476,180,92239,1,10,1:2:0:0:
320,148,92431,1,0,0:0:0:0:
368,300,92623,5,2,0:0:0:0:
408,120,92816,1,0,0:0:0:0:
300,240,93008,1,2,0:0:0:0:
476,180,93201,1,0,0:0:0:0:
340,60,93392,1,2,0:0:0:0:
452,268,93585,1,0,0:0:0:0:
492,92,93777,1,2,0:0:0:0:
320,148,93969,1,2,0:0:0:0:
280,152,94066,1,2,0:0:0:0:
244,156,94162,5,2,0:0:0:0:
72,100,94354,1,2,0:0:0:0:
280,240,94546,1,2,0:0:0:0:
36,184,94739,1,2,0:0:0:0:
264,32,94931,1,2,0:0:0:0:
124,252,95123,1,2,0:0:0:0:
128,300,95219,1,2,0:0:0:0:
132,348,95316,1,2,0:0:0:0:
